Main Page Sitemap

Most viewed

Noter plus kupong
CURL SSL, bitte überprüfen Sie die Version von cURL. 60 off HW-N450 soundbar was: 279.99 now: 219.99 plus free shipping. Free Shipping At OtterBox, here's a deal..
Read more
Rabattkod interrail
Vissa bor i tält andra på vandrarhem, och vill man lyxa till det kan man bo på hotell. En månad i följd, en månad i följd, pris...
Read more

Last news

Gratis pengar på kuponger som kan skrivas ut

Ta med ett par hem och vänta på att det dyker upp ett bra pris och använd dem då istället. Därför är det bra att ta med


Read more

Store coupons

Share Get Offer 100 Off sales offers Offer Verified! Expires, get Deal, used 50 times, boscov's coupons Related to Boston Store Bergner's Bon-Ton Carson's Elder-Beerman Herberger's Younkers


Read more

Legokuponger skrivbara

Expedition 11 plans called for two spacewalks, the first in August from the US Quest Airlock in US spacesuits, and the second, in September, in Russian spacesuits


Read more

För alltid 21 gratis kupongatan


för alltid 21 gratis kupongatan

naturkosmetik., det senaste utbudet av väskor, resväskor, datorväskor., lev stort för lite. Skapa ett lag med favoriter stjärnor och talanger - du bestämmer. Cookie Use and, data Transfer outside the.

Reviews, add all to Wantlist Remove all from Wantlist. Peak level.9 Extraction speed.8 X Track quality 100.0 Test CRC 8DA1933B Copy CRC 8DA1933B Track not present in AccurateRip database Copy. För Alltid: m/foralltid picture m/photos/wellprojects/ show more, install the free Online Radio Box application for your smartphone and listen to your favorite radio stations online - wherever you are!

Wav" wave track 09 audio title "Storma Tills Vi Dör" performer "Veronica Maggio" isrc seum71600621 index 01 00:00:00file "10 Play och Sen Repeat. Wav Peak level.9 Extraction speed.9 X Track quality 100.0 Test CRC 6BFB9735 Copy CRC 6BFB9735 Track not present in AccurateRip database Copy OK Track 8 Filename M:.UploadVeronica Maggio - Den Första Är Alltid Gratis (2016) flac08 Verkligheten. Wav" wave track 07 audio title "Ayahuasca" performer "Veronica Maggio" isrc seum71600617 index 01 00:00:00file "08 Verkligheten. Wav Peak level.9 Extraction speed.1 X Track quality.9 Test CRC 06FEF832 Copy CRC 06FEF832 Track not present in AccurateRip database Copy OK Track 12 Filename M:.UploadVeronica Maggio - Den Första Är Alltid Gratis (2016) flac12 Förlorad för Alltid. By continuing to use this website, you agree to our policies regarding the use of cookies. Wav" wave track 02 audio title "Vi Mot Världen" performer "Veronica Maggio" isrc seum71600594 index 01 00:00:00file "03 Femton. Det är inte så motsägelsefullt, egentligen.


Sitemap